请选择 进入手机版 | 继续访问电脑版

[2021] [大陆] [爱情] [WEB-4K] 有一点动心[email protected] 10.82GB

[复制链接]
查看160 | 回复0 | 2022-8-26 09:39:42 | 显示全部楼层 |阅读模式
[2021] [大陆] [爱情] [WEB-4K] 有一点动心[email protected] 10.82GB -->



完整标题:有一点动心[email protected] 10.82GB
  



◎译  名 有一点动心 / 相亲大作战

◎年  代 2021

◎产  地 中国大陆

◎类  别 爱情

◎语  言 汉语普通话

◎上映日期 2021-06-03(中国大陆)

◎IMDb链接 https://www.imdb.com/title/tt13556244/

◎豆瓣评分 4.5/10 (2732人评价)

◎豆瓣链接 https://movie.douban.com/subject/34454693/

◎片  长 94分钟

◎导  演 陈嘉上 Gordon Chan (id:1274245)

      朱雪菲 Xuefei Zhu (id:1439808)

◎编  剧 陈嘉上 Gordon Chan (id:1274245)

      吴晓洁 Xiaojie Wu (id:1426717)

      朱雪菲 Xuefei Zhu (id:1439808)

      林静璇 Jingxuan Lin (id:1439830)

◎演  员 言承旭 Jerry Yan (id:1014501)

      任素汐 Suxi Ren (id:1362973)

      柳岩 Yan Liu (id:1312846)

      戚薇 Stephy Qi (id:1313916)

      连凯 Andrew Lin (id:1122837)

      汤加文 Carmen Tong (id:1358039)

      曹扬 Yang Cao (id:1339294)

      李欣烨 Xinye Li (id:1356952)

      那威 Wei Na (id:1275600)

      李勤勤 Qinqin Li (id:1274639)

      王一宁 Yining Wang (id:1449838)

      张琛 Chen Zhang (id:1394958)

      张信哲 Jeff Chang (id:1198234)

      周丹丹 Dandan Zhou (id:1455707)



◎标  签 言承旭 / 任素汐 / 爱情 / 张信哲 / 喜剧 / 2021 / 中国大陆 / 都市



◎简  介

  周启文(言承旭 饰)创立的游戏公司因旗下员工直播的“渣男”言论引起全网声讨,被迫宣告破产,他带着兄弟们去找“始作俑者”相亲APP员工讨个说法。虽然打着成为对方客户,搅黄她们生意的坏主意,但周启文却被对方女老板陈然(任素汐 饰)安排得明明白白。在不断的相亲过程中,二人逐渐卸下了对彼此的敌意和伪装,互相的了解让二人间萌生情愫。在这越来越不敢爱的时代,周启文和陈然是会就此错过,还是能抓住命运不顾一切付出真心?


##### MediaInfo ######
General
Complete name : 有一点动心[email protected]
Format : MPEG-4
Format profile : Base Media
Codec ID : isom (isom/iso2/mp41)
File size : 10.8 GiB
Duration : 1 h 34 min
Overall bit rate : 16.4 Mb/s
Writing application : OurTV Media Encoder

Video
ID : 1
Format : HEVC
Format/Info : High Efficiency Video Coding
Format profile : [email protected]@Main
Codec ID : hev1
Codec ID/Info : High Efficiency Video Coding
Duration : 1 h 34 min
Bit rate : 16.2 Mb/s
Width : 3 840 pixels
Height : 1 608 pixels
Display aspect ratio : 2.40:1
Frame rate mode : Constant
Frame rate : 24.000 FPS
Color space : YUV
Chroma subsampling : 4:2:0
Bit depth : 8 bits
Bits/(Pixel*Frame) : 0.109
Stream size : 10.7 GiB (99%)
Codec configuration box : hvcC

Audio
ID : 2
Format : AAC LC
Format/Info : Advanced Audio Codec Low Complexity
Codec ID : mp4a-40-2
Duration : 1 h 34 min
Bit rate mode : Constant
Bit rate : 192 kb/s
Channel(s) : 2 channels
Channel layout : L R
Sampling rate : 44.1 kHz
Frame rate : 43.066 FPS (1024 SPF)
Compression mode : Lossy
Stream size : 129 MiB (1%)
Default : Yes
Alternate group : 1



黑锐吧资源网 - 论坛版权1、本站内容为会员分享发布到黑锐吧资源网,本主题所有言论和图片纯属会员个人意见,与本论坛立场无关。
2、本帖部分内容转载自其它媒体,但并不代表本站赞同其观点和对其真实性负责。
3、视频教程自学网展示的内容只做学习和交流使用,版权归原作者所有,请在下载后24小时之内自觉删除。
4、本站发布的内容若侵犯到您的权益,请联系自学网站长删除,本站将及时予与删除并致以最深的歉意!
5、黑锐吧资源网管理员和版主有权不事先通知发贴者而删除本文。

楼主热帖
回复

使用道具 举报

您需要登录后才可以回帖 登录 | 立即注册

本版积分规则