请选择 进入手机版 | 继续访问电脑版

[2022] [印度] [动作] [纯净版] [BT下载][RRR][WebDL-MKV/7.97GB][中字][1080P][印度2022超火爆动作超燃必看神

[复制链接]
查看1055 | 回复0 | 2022-8-29 23:39:31 | 显示全部楼层 |阅读模式
[2022] [印度] [动作] [纯净版] [今日BT电影网免费提供最新高清无水印版下载][RRR][WebDL-MKV/7.97GB][中字][1080P][印度2022超火爆动作超燃必看神作] -->

海报





译  名 RRR/双雄起义(台)
片  名 Rise Roar Revolt
年  代 2022
国  家 印度
类  别 动作/剧情
语  言 泰卢固语/印地语/泰米尔语/马拉雅拉姆语/卡纳达语
字  幕 中简/中繁/英文
评  分 8.1/10 from 73,919 users
链  接 https://www.imdb.com/title/tt8178634
文件大小 7.97 GB
片  长 185 Min
导  演 S·S·拉贾穆里 S.S. Rajamouli
主  演 小老虎 Junior N.T.R.
     拉姆·查兰·特哈 Ram Charan Teja
     阿贾耶·德乌干 Ajay Devgan
     阿莉雅·布哈特 Alia Bhatt
     施芮娅·萨兰 Shriya Saran
     雷·史蒂文森 Ray Stevenson
     艾莉森·杜迪 Alison Doody
     Makrand Deshpande
     马克·班宁顿 Mark Bennington
     Ahmareen Anjum
     爱德华·布海克 Eduard Buhac

简介

  1920年,英国总督斯科特和他的妻子凯瑟琳访问阿迪拉巴德的一个部落,并强行带走了部落里歌唱天赋异禀的小女孩玛莉,部落的保护者比姆(小老虎 饰)为了救回玛莉,伪装成穆斯林。斯科特得知消息后,总督府的底层卫兵拉朱(拉姆·查兰·特哈 饰)为了升职也同时为了完成他父亲遗愿和他对部落承诺,主动请愿自己可以将比姆逮捕。

  比姆和拉朱因共同拯救了一个差点葬身火海的小男孩而巧遇,他们并不认识对方,然而两人也隐藏了自己的真实身份,相互联系,成为挚友。拉朱在一次调查中发现自己的挚友就是总督要逮捕的比姆,他一边是承载了父亲的遗愿和整个部落的承诺,一边是自己的挚友,他该如何抉择……

  Video

Format                         : AVC

Format/Info                    : Advanced Video Codec

Format profile                 : [email protected]

Format settings                : CABAC / 3 Ref Frames

Format settings, CABAC         : Yes

Format settings, Reference fra : 3 frames

Codec ID                       : V_MPEG4/ISO/AVC

Duration                       : 3 h 5 min

Bit rate mode                  : Variable

Bit rate                       : 5 386 kb/s

Nominal bit rate               : 2 925 kb/s

Maximum bit rate               : 11.2 Mb/s

Width                          : 1 920 pixels

Height                         : 1 080 pixels

Display aspect ratio           : 16:9

Frame rate mode                : Constant

Frame rate                     : 24.000 FPS

Color space                    : YUV

Chroma subsampling             : 4:2:0

Bit depth                      : 8 bits

Scan type                      : Progressive

Bits/(Pixel*Frame)             : 0.108

Stream size                    : 6.97 GiB (87%)



Audio

Format                         : E-AC-3 JOC

Format/Info                    : Enhanced AC-3 with Joint Object Coding

Commercial name                : Dolby Digital Plus with Dolby Atmos

Codec ID                       : A_EAC3

Duration                       : 3 h 5 min

Bit rate mode                  : Constant

Bit rate                       : 768 kb/s

Channel(s)                     : 6 channels

Channel layout                 : L R C LFE Ls Rs

Sampling rate                  : 48.0 kHz

Frame rate                     : 31.250 FPS (1536 SPF)

Compression mode               : Lossy

Stream size                    : 1 017 MiB (12%)

Service kind                   : Complete Main

Complexity index               : 16

Number of dynamic objects      : 15

Bed channel count              : 1 channel

Bed channel configuration      : LFE



截图

  


下载地址访问:ttttbt.com 免费下载最新高清电影 www.23cg.cn 爱上资源网分享精品影视资源 阿里云盘高清下载

黑锐吧资源网 - 论坛版权1、本站内容为会员分享发布到黑锐吧资源网,本主题所有言论和图片纯属会员个人意见,与本论坛立场无关。
2、本帖部分内容转载自其它媒体,但并不代表本站赞同其观点和对其真实性负责。
3、视频教程自学网展示的内容只做学习和交流使用,版权归原作者所有,请在下载后24小时之内自觉删除。
4、本站发布的内容若侵犯到您的权益,请联系自学网站长删除,本站将及时予与删除并致以最深的歉意!
5、黑锐吧资源网管理员和版主有权不事先通知发贴者而删除本文。

楼主热帖
回复

使用道具 举报

您需要登录后才可以回帖 登录 | 立即注册

本版积分规则