请选择 进入手机版 | 继续访问电脑版

[2014] [欧美] [科幻] [WEB-4K] [BT下载]明日边缘 Edge.of.Tomorrow.2014.INTERNAL.HDR.2160p.WE

[复制链接]
查看1536 | 回复0 | 2022-8-26 10:11:14 | 显示全部楼层 |阅读模式
[2014] [欧美] [科幻] [WEB-4K] [今日BT电影网免费提供最新高清无水印版下载]明日边缘 Edge.of.Tomorrow.2014.INTERNAL.HDR.2160p.WEB.H265-DEFLATE 11.5GB -->

  

◎译  名 明日边缘 / All You Need Is Kill / Live Die Repeat: Edge of Tomorrow / We Mortals Are / 异空战士(港) / 明日边界(台) / 杀戮轮回 / 生死轮回

◎片  名 Edge of Tomorrow

◎年  代 2014

◎产  地 美国 / 加拿大

◎类  别 动作 / 科幻

◎语  言 英语

◎上映日期 2014-06-06(美国/中国大陆)

◎IMDb评分 7.9/10 from 538179 users

◎IMDb链接 http://www.imdb.com/title/tt1631867

◎豆瓣评分 8.1/10 from 304772 users

◎豆瓣链接 https://movie.douban.com/subject/4746257/

◎BT之家整理 http://8btbtt.com/  

◎片  长 114分钟(中国大陆)

◎导  演 道格·里曼 Doug Liman

◎编  剧 克里斯托弗·麦奎里 Christopher McQuarrie / Jez Butterworth / John-Henry Butterworth / 樱坂洋 Hiroshi Sakurazaka

◎主  演 汤姆·克鲁斯 Tom Cruise

      艾米莉·布朗特 Emily Blunt

      布莱丹·格里森 Brendan Gleeson

      比尔·帕克斯顿 Bill Paxton

      约纳斯·阿姆斯特朗 Jonas Armstrong

      托尼·威 Tony Way

      奇克·盖瑞 Kick Gurry

      弗朗茨·德拉姆 Franz Drameh

      德拉戈米尔·米希克 Dragomir Mrsic

      夏洛特·莱李 Charlotte Riley

      羽田正义 Masayoshi Haneda

      特伦斯·梅纳德 Terence Maynard

      诺亚·泰勒 Noah Taylor

      拉娜·普尔弗 Lara Pulver

      玛德琳·曼托克 Madeleine Mantock










◎简  介   




  未来世界陷入外星人入侵的恐慌中,军事演说家凯奇少校(汤姆·克鲁斯 Tom Cruise 饰)畏惧上战场,他从没想过将军(布莱丹·格里森 Brendan Gleeson 饰)会让他去指挥即将开始的“诺曼底战役”,拒绝接受命令之后将军居然恶整了他,那就是把他当做逃兵扔进了军 营中。凯奇被归入了J小队中进行战斗,战役的第一天就惨死在战场,没想到这一死让他拥有了时空循环的能力,而唯一相信他的人就是被称为“全金属战士”的丽塔·沃拉塔斯基(艾米莉·布朗特 Emily Blunt 饰)。二人开始了时空循环作战,在训练凯奇的同时他们发现了控制时间的奥秘,这与外星人“主脑”欧米茄有关,但是唯一能取得胜利的方法就是让凯奇不断死去、不断重启时间。在不断重复登陆那天的战斗的同时,凯奇越来越不想失去丽塔……




◎获奖情况   




  第42届动画安妮奖(2015)

  最佳真人电影动画效果




  第16届美国青少年选择奖(2014)

  最佳动作冒险电影(提名)

  最佳动作冒险电影男演员(提名) 汤姆·克鲁斯

  最佳动作冒险电影女演员(提名) 艾米莉·布朗特




  第1届豆瓣电影年度榜单(2014)

  最受关注的院线电影(提名)

  6月最受关注电影




Video
ID : 1
Format : HEVC
Format/Info : High Efficiency Video Coding
Commercial name : HDR10
Format profile : Main [email protected]@Main
Codec ID : V_MPEGH/ISO/HEVC
Duration : 1 h 53 min
Bit rate : 13.7 Mb/s
Width : 3 840 pixels
Height : 1 600 pixels
Original height : 2 160 pixels
Display aspect ratio : 16:9
Frame rate mode : Constant
Frame rate : 23.976 (24000/1001) FPS
Color space : YUV
Chroma subsampling : 4:2:0
Bit depth : 10 bits
Bits/(Pixel*Frame) : 0.093
Stream size : 10.9 GiB (94%)
Default : Yes
Forced : No
Color range : Limited
Color primaries : BT.2020
Transfer characteristics : PQ
Matrix coefficients : BT.2020 non-constant
Mastering display color primaries : BT.2020
Mastering display luminance : min: 0.0050 cd/m2, max: 4000 cd/m2
Maximum Content Light Level : 489 cd/m2
Maximum Frame-Average Light Level : 115 cd/m2

Audio
ID : 2
Format : E-AC-3 JOC
Format/Info : Enhanced AC-3 with Joint Object Coding
Commercial name : Dolby Digital Plus with Dolby Atmos
Codec ID : A_EAC3
Duration : 1 h 53 min
Bit rate mode : Constant
Bit rate : 576 kb/s
Channel(s) : 6 channels
Channel layout : L R C LFE Ls Rs
Sampling rate : 48.0 kHz
Frame rate : 31.250 FPS (1536 SPF)
Compression mode : Lossy
Stream size : 467 MiB (4%)
Language : English
Service kind : Complete Main
Default : Yes
Forced : No
Complexity index : 12
Number of dynamic objects : 11
Bed channel count : 1 channel
Bed channel configuration : LFE

Text #1
ID : 3
Format : UTF-8
Codec ID : S_TEXT/UTF8
Codec ID/Info : UTF-8 Plain Text
Title : English
Language : English
Default : No
Forced : No

Text #2
ID : 4
Format : UTF-8
Codec ID : S_TEXT/UTF8
Codec ID/Info : UTF-8 Plain Text
Title : English (SDH)
Language : English
Default : No
Forced : No





黑锐吧资源网 - 论坛版权1、本站内容为会员分享发布到黑锐吧资源网,本主题所有言论和图片纯属会员个人意见,与本论坛立场无关。
2、本帖部分内容转载自其它媒体,但并不代表本站赞同其观点和对其真实性负责。
3、视频教程自学网展示的内容只做学习和交流使用,版权归原作者所有,请在下载后24小时之内自觉删除。
4、本站发布的内容若侵犯到您的权益,请联系自学网站长删除,本站将及时予与删除并致以最深的歉意!
5、黑锐吧资源网管理员和版主有权不事先通知发贴者而删除本文。

楼主热帖
回复

使用道具 举报

您需要登录后才可以回帖 登录 | 立即注册

本版积分规则