请选择 进入手机版 | 继续访问电脑版

[2021] [欧美] [科幻] [WEB-4K] 寂静之地2[双语字幕].A.Quiet.Place.Part.II.2020.2160p.HDR.UHD.B

[复制链接]
查看649 | 回复0 | 2022-8-26 10:11:10 | 显示全部楼层 |阅读模式
[2021] [欧美] [科幻] [WEB-4K] 寂静之地2[双语字幕].A.Quiet.Place.Part.II.2020.2160p.HDR.UHD.BluRay.TrueHD.7.1.Atmos.x26 -->



完整标题:寂静之地2[双语字幕].A.Quiet.Place.Part[email protected]BBQDDQ.COM 11.34GB
  



◎译  名 寂静之地2 / 无声绝境II(港) / 噤界II(台) / A Quiet Place 2

◎片  名 A Quiet Place: Part II

◎年  代 2021

◎产  地 美国

◎类  别 科幻 / 惊悚 / 恐怖

◎语  言 英语

◎上映日期 2021-05-28(中国大陆/美国)

◎IMDb链接 https://www.imdb.com/title/tt8332922/

◎豆瓣评分 6.5/10 (108222人评价)

◎豆瓣链接 https://movie.douban.com/subject/30206311/

◎片  长 97分钟

◎导  演 约翰·卡拉辛斯基 John Krasinski (id:1027146)

◎编  剧 约翰·卡拉辛斯基 John Krasinski (id:1027146)

      斯科特·贝克 Scott Beck (id:1029358)

      布莱恩·伍兹 Bryan Woods (id:1052734)

◎演  员 艾米莉·布朗特 Emily Blunt (id:1041022)

      基里安·墨菲 Cillian Murphy (id:1047992)

      米利森特·西蒙兹 Millicent Simmonds (id:1374192)

      诺亚·尤佩 Noah Jupe (id:1356120)

      约翰·卡拉辛斯基 John Krasinski (id:1027146)

      杰曼·翰苏 Djimon Hounsou (id:1044880)

      奥基里特·奥诺多瓦 Okieriete Onaodowan (id:1382437)

      斯科特·麦克纳里 Scoot McNairy (id:1302972)

      扎卡里·戈林格 Zachary Golinger (id:1457353)

      布莱克·德隆 Blake DeLong (id:1457674)

      加里·桑当 Gary Sundown (id:1457675)

      阿什利·戴克 Ashley Dyke (id:1366174)

      韦恩·杜瓦尔 Wayne Duvall (id:1019154)

      克兹托夫·克里斯·马杜拉 Krzysztof \“Kris\“ Mardula (id:1419252)

      阿利森·西格 Allyson Seeger (id:1457351)

      乔安·佩里塔诺 JoAnn Perritano (id:1392782)

      迈克尔·贝 Michael Bay (id:1027776)

      安德鲁·福姆 Andrew Form (id:1457352)

      布拉德利·福勒 Bradley Fuller (id:1284314)

      约翰·卡拉辛斯基 John Krasinski (id:1027146)

      马可·贝尔崔米 Marco Beltrami (id:1027998)

      波莉·摩根 Polly Morgan (id:1429254)

      劳拉·罗森塔尔 Laura Rosenthal (id:1296112)

      杰西·冈作 Jess Gonchor (id:1010149)

      南茜·黑格 Nancy Haigh (id:1285800)

      卡西娅·瓦利卡-麦蒙 Kasia Walicka-Maimone (id:1290762)



◎标  签 惊悚 / 恐怖 / 美国 / 科幻 / 惊恐 / 2021 / 悬疑 / 超自然



◎简  介

  故事紧承上一部展开。在丈夫为保护家人牺牲后,伊芙琳(艾米莉·布朗特 饰)不得不独自带着孩子们(米莉森·西蒙斯、诺亚·尤佩 饰)面对全新的生存挑战。他们将被迫离开家园,踏上一段未知的旅途。在无声的世界里,除了要躲避“猎声怪物”的捕杀,铺满细沙的道路尽头还暗藏着新的危机。


##### MediaInfo ######
General
Unique ID : 301031102494038662294330148725647163822 (0xE2787B4035C4285F5322D4AD4FD741AE)
Complete name : A.Quiet.Place.Part.II.2020.2160p.[email protected]
Format : Matroska
Format version : Version 4
File size : 11.3 GiB
Duration : 1 h 37 min
Overall bit rate mode : Variable
Overall bit rate : 16.7 Mb/s
Movie name : A Quiet Place Part II 2020 2160p HDR UHD BluRay TrueHD 7.1 Atmos [email protected]
Encoded date : UTC 2021-07-24 01:29:09
Writing application : mkvmerge v38.0.0 (\“The Silent Type\“) 64-bit
Writing library : libebml v1.3.9 + libmatroska v1.5.2

Video
ID : 1
Format : HEVC
Format/Info : High Efficiency Video Coding
Format profile : Main [email protected]@High
HDR format : SMPTE ST 2086, HDR10 compatible
Codec ID : V_MPEGH/ISO/HEVC
Duration : 1 h 37 min
Bit rate : 12.4 Mb/s
Width : 3 840 pixels
Height : 1 600 pixels
Display aspect ratio : 2.40:1
Frame rate mode : Constant
Frame rate : 23.976 (24000/1001) FPS
Color space : YUV
Chroma subsampling : 4:2:0
Bit depth : 10 bits
Bits/(Pixel*Frame) : 0.084
Stream size : 8.42 GiB (74%)
Title : @HDSky
Writing library : x265 - H.265/HEVC codec
Default : Yes
Forced : No
Color range : Limited
Color primaries : BT.2020
Transfer characteristics : PQ
Matrix coefficients : BT.2020 non-constant
Mastering display color primaries : Display P3
Mastering display luminance : min: 0.0020 cd/m2, max: 1000 cd/m2
Maximum Content Light Level : 739 cd/m2
Maximum Frame-Average Light Level : 331 cd/m2

Audio
ID : 2
Format : MLP FBA 16-ch
Format/Info : Meridian Lossless Packing FBA with 16-channel presentation
Commercial name : Dolby TrueHD with Dolby Atmos
Codec ID : A_TRUEHD
Duration : 1 h 37 min
Bit rate mode : Variable
Bit rate : 4 224 kb/s
Maximum bit rate : 7 821 kb/s
Channel(s) : 8 channels
Channel layout : L R C LFE Ls Rs Lb Rb
Sampling rate : 48.0 kHz
Frame rate : 1 200.000 FPS (40 SPF)
Compression mode : Lossless
Stream size : 2.86 GiB (25%)
Title : English
Language : English
Default : Yes
Forced : No
Number of dynamic objects : 11
Bed channel count : 1 channel
Bed channel configuration : LFE

Text #1
ID : 3
Format : PGS
Muxing mode : zlib
Codec ID : S_HDMV/PGS
Codec ID/Info : Picture based subtitle format used on BDs/HD-DVDs
Duration : 1 h 24 min
Bit rate : 5 731 b/s
Count of elements : 692
Stream size : 3.47 MiB (0%)
Title : CHS
Language : Chinese
Default : Yes
Forced : No

Text #2
ID : 4
Format : PGS
Muxing mode : zlib
Codec ID : S_HDMV/PGS
Codec ID/Info : Picture based subtitle format used on BDs/HD-DVDs
Duration : 1 h 24 min
Bit rate : 5 877 b/s
Count of elements : 692
Stream size : 3.56 MiB (0%)
Title : CHT
Language : Chinese
Default : No
Forced : No

Text #3
ID : 5
Format : PGS
Muxing mode : zlib
Codec ID : S_HDMV/PGS
Codec ID/Info : Picture based subtitle format used on BDs/HD-DVDs
Duration : 1 h 24 min
Bit rate : 9 988 b/s
Count of elements : 698
Stream size : 6.05 MiB (0%)
Title : CHS&ENG
Language : Chinese
Default : No
Forced : No

Text #4
ID : 6
Format : PGS
Muxing mode : zlib
Codec ID : S_HDMV/PGS
Codec ID/Info : Picture based subtitle format used on BDs/HD-DVDs
Duration : 1 h 24 min
Bit rate : 10.1 kb/s
Count of elements : 698
Stream size : 6.14 MiB (0%)
Title : CHT&ENG
Language : Chinese
Default : No
Forced : No

Menu
00:00:00.000 : en:Chapter 01
00:06:39.190 : en:Chapter 02
00:12:16.319 : en:Chapter 03
00:17:00.269 : en:Chapter 04
00:26:28.170 : en:Chapter 05
00:33:26.338 : en:Chapter 06
00:38:06.701 : en:Chapter 07
00:45:53.751 : en:Chapter 08
00:51:18.033 : en:Chapter 09
00:55:35.916 : en:Chapter 10
01:02:21.279 : en:Chapter 11
01:08:43.828 : en:Chapter 12
01:16:31.921 : en:Chapter 13
01:21:25.881 : en:Chapter 14
01:28:12.996 : en:Chapter 15



黑锐吧资源网 - 论坛版权1、本站内容为会员分享发布到黑锐吧资源网,本主题所有言论和图片纯属会员个人意见,与本论坛立场无关。
2、本帖部分内容转载自其它媒体,但并不代表本站赞同其观点和对其真实性负责。
3、视频教程自学网展示的内容只做学习和交流使用,版权归原作者所有,请在下载后24小时之内自觉删除。
4、本站发布的内容若侵犯到您的权益,请联系自学网站长删除,本站将及时予与删除并致以最深的歉意!
5、黑锐吧资源网管理员和版主有权不事先通知发贴者而删除本文。

楼主热帖
回复

使用道具 举报

您需要登录后才可以回帖 登录 | 立即注册

本版积分规则