请选择 进入手机版 | 继续访问电脑版

[2021] [大陆] [科幻] [WEB-4K] 记忆切割[国语音轨].Memory.Dissection.2021.WEB-DL.4K.H265.DDP.5

[复制链接]
查看947 | 回复0 | 2022-8-26 10:11:09 | 显示全部楼层 |阅读模式
[2021] [大陆] [科幻] [WEB-4K] 记忆切割[国语音轨].Memory.Dissection.2021.WEB-DL.4K.H265.DDP.5.1-Dave 10.22GB -->



◎译  名 记忆切割 / Memory Dissection
◎年  代 2021
◎产  地 中国大陆
◎类  别 科幻 / 悬疑
◎语  言 汉语普通话
◎上映日期 2021-04-23(中国大陆)
◎IMDb链接 https://www.imdb.com/title//
◎豆瓣评分 3.0/10 (1026人评价)
◎豆瓣链接 https://movie.douban.com/subject/33383459/
◎片  长 90分钟
◎导  演 果靖霖 Jinglin Guo (id:1274914)
◎编  剧 果靖霖 Jinglin Guo (id:1274914)
◎演  员 郭采洁 Amber Kuo (id:1274814)
       果靖霖 Jinglin Guo (id:1274914)
       刘雪华 Hsueh-hua Liu (id:1228553)
       徐峥 Zheng Xu (id:1274297)
       王芯宜 Xinyi Wang (id:1441354)

◎标  签 悬疑 / 郭采洁 / 中国大陆 / 徐峥 / 电影 / 怪不得 / 中国 / 2020

◎简  介
  花季少女张辛儿(郭采洁饰),十岁那年意外看到了父母被枪杀的凶案现场,内心受到极大创伤。这永远无法抹去的痛苦记忆伴随她的成长。受张辛儿监护人辅导员刘梅(刘雪华饰)所托,著名生物科学家董教授(果靖霖饰)通过切割记忆的方法,帮她重塑记忆,切割痛苦。原本顺利的记忆切割实验,却接连不断的发生意外、失控,当真相不断浮出水面,张辛儿最终将如何面对这一切?


General
Unique ID                                : 140127809281110249332558794560487091307 (0x696BA2679E3E9CD593DC0413E590EC6B)
Complete name                            : Memory.Dissection.2021.WEB-DL.4K.H265.DDP.5.1-Dave.mkv
Format                                   : Matroska
Format version                           : Version 4
File size                                : 10.2 GiB
Duration                                 : 1 h 29 min
Overall bit rate                         : 16.3 Mb/s
Encoded date                             : UTC 2021-06-28 08:25:37
Writing application                      : mkvmerge v58.0.0 (\“Supper\“s Ready\“) 64-bit
Writing library                          : libebml v1.4.2 + libmatroska v1.6.4

Video
ID                                       : 1
Format                                   : HEVC
Format/Info                              : High Efficiency Video Coding
Format profile                           : [email protected]@Main
Codec ID                                 : V_MPEGH/ISO/HEVC
Duration                                 : 1 h 29 min
Bit rate                                 : 15.9 Mb/s
Width                                    : 3 840 pixels
Height                                   : 1 608 pixels
Display aspect ratio                     : 2.40:1
Frame rate mode                          : Constant
Frame rate                               : 24.000 FPS
Color space                              : YUV
Chroma subsampling                       : 4:2:0
Bit depth                                : 8 bits
Bits/(Pixel*Frame)                       : 0.107
Stream size                              : 9.94 GiB (97%)
Default                                  : Yes
Forced                                   : No

Audio #1
ID                                       : 2
Format                                   : E-AC-3
Format/Info                              : Enhanced AC-3
Commercial name                          : Dolby Digital Plus
Codec ID                                 : A_EAC3
Duration                                 : 1 h 29 min
Bit rate mode                            : Constant
Bit rate                                 : 256 kb/s
Channel(s)                               : 6 channels
Channel layout                           : L R C LFE Ls Rs
Sampling rate                            : 48.0 kHz
Frame rate                               : 31.250 FPS (1536 SPF)
Compression mode                         : Lossy
Stream size                              : 164 MiB (2%)
Language                                 : Chinese
Service kind                             : Complete Main
Default                                  : Yes
Forced                                   : No

Audio #2
ID                                       : 3
Format                                   : AAC LC
Format/Info                              : Advanced Audio Codec Low Complexity
Codec ID                                 : A_AAC-2
Duration                                 : 1 h 29 min
Bit rate                                 : 192 kb/s
Channel(s)                               : 2 channels
Channel layout                           : L R
Sampling rate                            : 44.1 kHz
Frame rate                               : 43.066 FPS (1024 SPF)
Compression mode                         : Lossy
Stream size                              : 122 MiB (1%)
Language                                 : Chinese
Default                                  : Yes
Forced                                   : No





黑锐吧资源网 - 论坛版权1、本站内容为会员分享发布到黑锐吧资源网,本主题所有言论和图片纯属会员个人意见,与本论坛立场无关。
2、本帖部分内容转载自其它媒体,但并不代表本站赞同其观点和对其真实性负责。
3、视频教程自学网展示的内容只做学习和交流使用,版权归原作者所有,请在下载后24小时之内自觉删除。
4、本站发布的内容若侵犯到您的权益,请联系自学网站长删除,本站将及时予与删除并致以最深的歉意!
5、黑锐吧资源网管理员和版主有权不事先通知发贴者而删除本文。

楼主热帖
回复

使用道具 举报

您需要登录后才可以回帖 登录 | 立即注册

本版积分规则