请选择 进入手机版 | 继续访问电脑版

[阿里网盘] [欧美] [爱情] [WEB-4K] 真实罗曼史[双语字幕].True.Romance.1993.2160p.HDR.UHD.BluRay.DTS

[复制链接]
查看1644 | 回复0 | 2022-8-26 09:40:30 | 显示全部楼层 |阅读模式
[更 早] [欧美] [爱情] [WEB-4K] 真实罗曼史[双语字幕].True.Romance.1993.2160p.HDR.UHD.BluRay.DTS-HD.MA.5.1.x265-10bit-1000 -->



字幕为软字幕,电脑端推荐使用播放器:PotPlayer,完美解码,KMPLAYER,其他播放器请自行尝试。


字幕为软字幕,移动端推荐使用播放器:MxPlayer,nPlayer,infuse ,其他播放器请自行尝试。


完整标题:真实罗曼史[双语字幕].True.R[email protected]BBQDDQ.COM 16.74GB
  



◎译  名 真实罗曼史 / 浪漫风暴(港) / 绝命大煞星(台) / 致命浪漫

◎片  名 True Romance

◎年  代 1993

◎产  地 美国 / 法国

◎类  别 爱情 / 惊悚 / 犯罪

◎语  言 英语 / 意大利语

◎上映日期 1993-09-10(美国) / 1993-11-03(法国)

◎IMDb链接 https://www.imdb.com/title/tt0108399/

◎豆瓣评分 8.1/10 (11036人评价)

◎豆瓣链接 https://movie.douban.com/subject/1295324/

◎片  长 120分钟

◎导  演 托尼·斯科特 Tony Scott (id:1017979)

◎编  剧 昆汀·塔伦蒂诺 Quentin Tarantino (id:1054444)

      罗杰·阿夫瑞 Roger Avary (id:1049901)

◎演  员 克里斯蒂安·史莱特 Christian Slater (id:1022597)

      帕特丽夏·阿奎特 Patricia Arquette (id:1002694)

      丹尼斯·霍珀 Dennis Hopper (id:1044720)

      方·基默 Val Kilmer (id:1013761)

      加里·奥德曼 Gary Oldman (id:1010507)

      布拉德·皮特 Brad Pitt (id:1054452)

      克里斯托弗·沃肯 Christopher Walken (id:1053574)

      布隆森·皮诺切特 Bronson Pinchot (id:1055519)

      塞缪尔·杰克逊 Samuel L. Jackson (id:1054408)

      迈克尔·拉帕波特 Michael Rapaport (id:1031919)

      绍尔·鲁宾内克 Saul Rubinek (id:1010632)

      康查塔·费雷尔 Conchata Ferrell (id:1056139)

      詹姆斯·甘多菲尼 James Gandolfini (id:1049543)

      安娜·莱文 Anna Levine (id:1049843)

      维克多·阿尔果 Victor Argo (id:1041397)

      保罗·贝茨 Paul Bates (id:1335895)

      克里斯·潘 Chris Penn (id:1027819)

      汤姆·塞兹摩尔 Tom Sizemore (id:1036371)

      玛丽亚·皮提罗 Maria Pitillo (id:1014095)

      弗兰克·阿多尼斯 Frank Adonis (id:1041310)

      凯文·考利甘 Kevin Corrigan (id:1002746)

      保罗·本-维克托 Paul Ben-Victor (id:1062565)

      迈克尔·比奇 Michael Beach (id:1041218)

      乔·达安格里奥 Joe D\“Angerio (id:1073184)

      约翰·塞纳迭姆博 John Cenatiempo (id:1074569)

      艾瑞克·阿兰·克拉默 Eric Allan Kramer (id:1114451)

      Patrick John Hurley Patrick John Hurley (id:1114203)

      Dennis Garber Dennis Garber (id:1093515)

      劳伦斯·梅森 Laurence Mason (id:1315566)

      Adam Boster Adam Boster (id:1311857)

      April Freeman (id:1229080)

      埃德·劳特尔 Ed Lauter (id:1111563)

      Steve Perry Steve Perry (id:1294334)

      Don Edmonds Don Edmonds (id:1050473)

      鲍伯·韦恩斯坦 Bob Weinstein (id:1300654)

      James G. Robinson James G. Robinson (id:1295819)

      加里·巴伯 Gary Barber (id:1277874)

      汉斯·季默 Hans Zimmer (id:1054386)

      克里斯蒂安·瓦格纳 Christian Wagner (id:1300243)

      迈克尔·特罗尼克 Michael Tronick (id:1299544)

      里萨·布雷蒙·加西亚 Risa Bramon Garcia (id:1284503)

      詹姆斯·J·默拉卡米 James J. Murakami (id:1292724)

      本哈明·费勒南戴斯 Benjamín Fernández (id:1283598)

      苏珊·贝克 Susan Becker (id:1278196)

      Carey Dietrich Carey Dietrich (id:1276420)



◎标  签 美国 / 犯罪 / 昆汀·塔伦蒂诺 / 爱情 / QuentinTarantino / 1993 / 美国电影 / 昆汀



◎简  介

  漫画店打工仔Clarence Worley(克里斯汀·史莱特 Christian Slater 饰)生日的时候,在电影院邂逅了美女Alabama Whitman (帕特丽夏·阿奎特 Patricia Arquette 饰),两人一夜春宵。第二天,Alabama告诉Cla rence她是个妓女,是Clarence的老板送给他的生日礼物,但她爱上了他。Clarence决定将Alabama从皮条客Drexl Spivey(加里·奥德曼 Gary Oldman 饰)手中拯救出来。夜总会的一阵混战后,Clarence开枪将Drexl杀死,并拿走了一个他以为属于Alabama的手提箱。后来两人发现,手提箱里竟有大量可卡因。两人欣喜若狂,开始流浪,寻找将可卡因换成现金的机会。两人一路来到了洛杉矶,找到了Clarence的老友Dick Ritchie(迈克尔·拉帕波...


##### MediaInfo ######
General
Unique ID : 192039558214597029222264855599522506868 (0x9079793BB3DB303646FDEC28FC27E874)
Complete name : [email protected]DQ.COM.mkv
Format : Matroska
Format version : Version 4
File size : 16.7 GiB
Duration : 2 h 0 min
Overall bit rate mode : Variable
Overall bit rate : 19.8 Mb/s
Movie name : True Romance 1993 2160p HDR UHD BluRay DTS [email protected]
Encoded date : UTC 2021-08-08 08:29:47
Writing application : mkvmerge v38.0.0 (\“The Silent Type\“) 64-bit
Writing library : libebml v1.3.9 + libmatroska v1.5.2

Video
ID : 1
Format : HEVC
Format/Info : High Efficiency Video Coding
Format profile : Main [email protected]@High
HDR format : SMPTE ST 2086, HDR10 compatible
Codec ID : V_MPEGH/ISO/HEVC
Duration : 2 h 0 min
Bit rate : 17.1 Mb/s
Width : 3 840 pixels
Height : 1 632 pixels
Display aspect ratio : 2.35:1
Frame rate mode : Constant
Frame rate : 23.976 (24000/1001) FPS
Color space : YUV
Chroma subsampling : 4:2:0
Bit depth : 10 bits
Bits/(Pixel*Frame) : 0.114
Stream size : 14.5 GiB (86%)
Title : @HDSky
Writing library : x265 - H.265/HEVC codec
Default : Yes
Forced : No
Color range : Limited
Color primaries : BT.2020
Transfer characteristics : PQ
Matrix coefficients : BT.2020 non-constant
Mastering display color primaries : BT.2020
Mastering display luminance : min: 0.0020 cd/m2, max: 1000 cd/m2
Maximum Content Light Level : 739 cd/m2
Maximum Frame-Average Light Level : 331 cd/m2

Audio
ID : 2
Format : DTS XLL
Format/Info : Digital Theater Systems
Commercial name : DTS-HD Master Audio
Codec ID : A_DTS
Duration : 2 h 0 min
Bit rate mode : Variable
Bit rate : 2 546 kb/s
Channel(s) : 6 channels
Channel layout : C L R Ls Rs LFE
Sampling rate : 48.0 kHz
Frame rate : 93.750 FPS (512 SPF)
Bit depth : 24 bits
Compression mode : Lossless
Stream size : 2.15 GiB (13%)
Title : English
Language : English
Default : Yes
Forced : No

Text #1
ID : 3
Format : PGS
Muxing mode : zlib
Codec ID : S_HDMV/PGS
Codec ID/Info : Picture based subtitle format used on BDs/HD-DVDs
Duration : 1 h 59 min
Bit rate : 49.5 kb/s
Count of elements : 3480
Stream size : 42.4 MiB (0%)
Title : ENG
Language : English
Default : Yes
Forced : No

Text #2
ID : 4
Format : PGS
Muxing mode : zlib
Codec ID : S_HDMV/PGS
Codec ID/Info : Picture based subtitle format used on BDs/HD-DVDs
Duration : 1 h 55 min
Bit rate : 47.9 kb/s
Count of elements : 3537
Stream size : 39.6 MiB (0%)
Title : CHS
Language : Chinese
Default : No
Forced : No

Text #3
ID : 5
Format : PGS
Muxing mode : zlib
Codec ID : S_HDMV/PGS
Codec ID/Info : Picture based subtitle format used on BDs/HD-DVDs
Duration : 1 h 55 min
Bit rate : 48.9 kb/s
Count of elements : 3537
Stream size : 40.4 MiB (0%)
Title : CHT
Language : Chinese
Default : No
Forced : No

Text #4
ID : 6
Format : PGS
Muxing mode : zlib
Codec ID : S_HDMV/PGS
Codec ID/Info : Picture based subtitle format used on BDs/HD-DVDs
Duration : 1 h 55 min
Bit rate : 76.9 kb/s
Count of elements : 3537
Stream size : 63.5 MiB (0%)
Title : CHS&ENG
Language : Chinese
Default : No
Forced : No

Text #5
ID : 7
Format : PGS
Muxing mode : zlib
Codec ID : S_HDMV/PGS
Codec ID/Info : Picture based subtitle format used on BDs/HD-DVDs
Duration : 1 h 55 min
Bit rate : 77.8 kb/s
Count of elements : 3537
Stream size : 64.3 MiB (0%)
Title : CHT&ENG
Language : Chinese
Default : No
Forced : No

Menu
00:00:00.000 : en:Chapter 01
00:08:45.942 : en:Chapter 02
00:19:06.728 : en:Chapter 03
00:32:22.105 : en:Chapter 04
00:40:27.257 : en:Chapter 05
00:47:38.855 : en:Chapter 06
00:58:26.418 : en:Chapter 07
01:13:10.676 : en:Chapter 08
01:23:41.306 : en:Chapter 09
01:33:48.706 : en:Chapter 10
01:42:56.461 : en:Chapter 11
01:54:16.056 : en:Chapter 12
02:00:36.103 : en:Chapter 13


  


本人发布所有电影,均为无水印高清版,拒绝任何枪版。拒绝任何赌场博彩水印广告!


新种请使用utorrent,qBittorrent,transmission等标准BT软件下载!以获取最快速度。

黑锐吧资源网 - 论坛版权1、本站内容为会员分享发布到黑锐吧资源网,本主题所有言论和图片纯属会员个人意见,与本论坛立场无关。
2、本帖部分内容转载自其它媒体,但并不代表本站赞同其观点和对其真实性负责。
3、视频教程自学网展示的内容只做学习和交流使用,版权归原作者所有,请在下载后24小时之内自觉删除。
4、本站发布的内容若侵犯到您的权益,请联系自学网站长删除,本站将及时予与删除并致以最深的歉意!
5、黑锐吧资源网管理员和版主有权不事先通知发贴者而删除本文。

楼主热帖
回复

使用道具 举报

您需要登录后才可以回帖 登录 | 立即注册

本版积分规则